Riho Fujimori - My Husband Can't Satisfy Me... Married Slut Needs Her Boss's Huge Cock Riho Fujimori [JUL-471] (MADONNA) [cen] [2021 г.,Mature Woman, Married Woman, Big Tits, Featured Actress, Cheating Wife, Huge Dick - Large Dick, HDRip] [

DL-List and Torrent activity [update peer]
Size:  1.94 GB   |    Registered:  5 months 20 days   |    Completed:  0 times
Seeders:  1  [  0 KB/s  ]   Show peers in full details
 
   
 
 

erzsebet ®

Longevity:
1 year 6 months
Posts:
998

-My Husband Can't Satisfy Me... Married Slut Needs Her Boss's Huge Cock Riho Fujimori
我丈夫不滿意... 已婚婦女藤森裡霍誰墮落到大公雞店長在零件目的地

-

-
Cтрана: Япония Жанр: Mature Woman, Married Woman, Big Tits, Featured Actress, Cheating Wife, Huge Dick - Large Dick Продолжительность: 01:56:45
Цензура: Есть во всех файлах Язык: Японский
-Студийный код фильма: JUL-471 Студия: MADONNA Европейские девушки в фильме: Нет
-
В ролях: Riho Fujimori
-
Тип HD Видео: 1080p Качество видео: HDRip Формат видео: MP4 Видео: AVC, 1920 pixels x 1080 pixels, 29.960 FPS, 2170 kb/s
Аудио
: AAC, 48.0 kHz stereo, 210 kb/s

-

Screenlist

MediaInfo

General
Complete name : E:\po\JUL-471.mp4
Format : MPEG-4
Format profile : Base Media
Codec ID : isom (isom/iso2/avc1/mp41)
File size : 1.94 GiB
Duration : 1 h 56 min
Overall bit rate : 2 383 kb/s
Writing application : Lavf58.42.100
Video
ID : 1
Format : AVC
Format/Info : Advanced Video Codec
Format profile : [email protected]
Format settings : CABAC / 1 Ref Frames
Format settings, CABAC : Yes
Format settings, Reference : 1 frame
Codec ID : avc1
Codec ID/Info : Advanced Video Coding
Duration : 1 h 56 min
Bit rate : 2 170 kb/s
Nominal bit rate : 2 997 kb/s
Width : 1 280 pixels
Height : 720 pixels
Display aspect ratio : 16:9
Frame rate mode : Variable
Frame rate : 31.820 FPS
Minimum frame rate : 8.333 FPS
Maximum frame rate : 12 800.000 FPS
Color space : YUV
Chroma subsampling : 4:2:0
Bit depth : 8 bits
Scan type : Progressive
Bits/(Pixel*Frame) : 0.074
Stream size : 1.77 GiB (91%)
Writing library : x264 core 129
Encoding settings : cabac=1 / ref=1 / deblock=1:0:0 / analyse=0x1:0x131 / me=dia / subme=2 / psy=1 / psy_rd=1.00:0.00 / mixed_ref=0 / me_range=16 / chroma_me=1 / trellis=0 / 8x8dct=0 / cqm=0 / deadzone=21,11 / fast_pskip=1 / chroma_qp_offset=0 / threads=4 / lookahead_threads=1 / sliced_threads=0 / nr=0 / decimate=1 / interlaced=0 / bluray_compat=0 / constrained_intra=0 / bframes=0 / weightp=2 / keyint=250 / keyint_min=25 / scenecut=40 / intra_refresh=0 / rc_lookahead=40 / rc=abr / mbtree=1 / bitrate=2997 / ratetol=1.0 / qcomp=0.60 / qpmin=10 / qpmax=51 / qpstep=4 / ip_ratio=1.41 / aq=1:1.00
Codec configuration box : avcC
Audio
ID : 2
Format : AAC LC
Format/Info : Advanced Audio Codec Low Complexity
Codec ID : mp4a-40-2
Duration : 1 h 54 min
Bit rate mode : Constant
Bit rate : 210 kb/s
Channel(s) : 2 channels
Channel layout : L R
Sampling rate : 48.0 kHz
Frame rate : 46.875 FPS (1024 SPF)
Compression mode : Lossy
Stream size : 172 MiB (9%)
Default : Yes
Alternate group : 1
[leporno.info].t76142.torrent 
Torrent: Registered [ 2021-02-11 12:04 ] · D116F64AB0C8740E02FD9BD08353004A324E37D6

Download .torrent

Download

20 KB

Status: checked
Completed: 0 times
Size: 1.94 GB
terms.php

11-Feb-2021 12:04

[Quote] 

Display posts:    

Current time is: 04-Aug 09:20

All times are UTC ± 0


You cannot post new topics in this forum
You cannot reply to topics in this forum
You cannot edit your posts in this forum
You cannot delete your posts in this forum
You cannot vote in polls in this forum
You cannot attach files in this forum
You can download files in this forum
User agreement