Moana & Milly Forever / Moana Pozzi и Milly D'Abbraccio навсегда (Martin White / FM Video) [Compilation, Classic Porn, Anal, DP, DVDRemux] Luana Borgia, Moana Pozzi, Milly D'Abbraccio, Rossana Doll, Vampirella

DL-List and Torrent activity [update peer]
Size:  3.76 GB   |    Registered:  27 days   |    Completed:  1 time
Seeders:  1  [  0 KB/s  ]   Leechers:  1  [  0 KB/s  ]   Show peers in full details
 
   
 
 

erzsebet ®

Longevity:
9 months 6 days
Posts:
865


Год выпуска: Unknown
Страна: Italia
Жанр: Compilation, Anal, DP
Продолжительность: 01:45:30
Язык: Italiano
Режиссер: Mario Bianchi as Martin White
Студия: FM Video
В ролях:
Luana Borgia, Moana Pozzi, Milly D'Abbraccio, Rossana Doll, Vampirella,
Cristoph Clark, Jean-Pierre Armand, Joey Silvera, Rocco Siffredi, Roberto Malone

Описание:
Due donne bellissime e uniche per deliziarvi con i loro corpi! Scene bellissime ad alto contenuto erotico.
Classic vintage stag film, European (Italian) porno loops. FM Video presents the greatest and hottest film "Moana & Milly Forever". An exciting nostalgia trip.
Качество: DVDRemux
Формат: MKV
Видео: MPEG2 Video 720x576 (4:3) 25fps 4969kbps
Аудио: Dolby AC3 48000Hz stereo 128kbps

MediaInfo

General
Unique ID : 177087614360669380350897772744299059253 (0x8539D57C49ACD6A08320ABD2B6311835)
Complete name : E:\Downloads\Moana & Milly Forever [erzsebet.org] DVD.mkv
Format : Matroska
Format version : Version 4
File size : 3.76 GiB
Duration : 1 h 45 min
Overall bit rate mode : Variable
Overall bit rate : 5 100 kb/s
Movie name : Moana & Milly Forever [erzsebet.org] DVD
Encoded date : UTC 2019-08-19 01:53:13
Writing application : mkvmerge v36.0.0 ('Is That Jazz?') 64-bit
Writing library : libebml v1.3.9 + libmatroska v1.5.2
Video
ID : 1
Format : MPEG Video
Format version : Version 2
Format profile : [email protected]
Format settings : CustomMatrix / BVOP
Format settings, BVOP : Yes
Format settings, Matrix : Custom
Format settings, GOP : Variable
Format settings, picture st : Frame
Codec ID : V_MPEG2
Codec ID/Info : MPEG 1 or 2 Video
Duration : 1 h 45 min
Bit rate mode : Variable
Bit rate : 4 969 kb/s
Maximum bit rate : 6 700 kb/s
Width : 720 pixels
Height : 576 pixels
Display aspect ratio : 4:3
Frame rate mode : Constant
Frame rate : 25.000 FPS
Standard : PAL
Color space : YUV
Chroma subsampling : 4:2:0
Bit depth : 8 bits
Scan type : Interlaced
Scan order : Bottom Field First
Compression mode : Lossy
Bits/(Pixel*Frame) : 0.479
Time code of first frame : 00:01:00:00
Time code source : Group of pictures header
GOP, Open/Closed : Closed
Stream size : 3.66 GiB (97%)
Language : Italian
Default : No
Forced : No
Color primaries : BT.601 PAL
Transfer characteristics : BT.470 System B/G
Matrix coefficients : BT.601
Audio
ID : 2
Format : AC-3
Format/Info : Audio Coding 3
Commercial name : Dolby Digital
Codec ID : A_AC3
Duration : 1 h 45 min
Bit rate mode : Constant
Bit rate : 128 kb/s
Channel(s) : 2 channels
Channel layout : L R
Sampling rate : 48.0 kHz
Frame rate : 31.250 FPS (1536 SPF)
Bit depth : 16 bits
Compression mode : Lossy
Stream size : 96.6 MiB (3%)
Title : Stereo
Language : Italian
Service kind : Complete Main
Default : Yes
Forced : No
Menu
00:00:00.000 : en:Chapter 01
00:00:51.000 : en:Chapter 02
00:12:49.160 : en:Chapter 03
00:28:37.040 : en:Chapter 04
00:37:10.360 : en:Chapter 05
00:46:39.640 : en:Chapter 06
00:54:21.400 : en:Chapter 07
01:03:06.240 : en:Chapter 08
01:21:25.440 : en:Chapter 09
01:33:32.640 : en:Chapter 10

Скринлист

[leporno.info].t61324.torrent 
Torrent: Registered [ 2020-10-01 09:28 ] · 9438F259DD225DACC86DAD4152A4776E92DD17CF

Download .torrent

Download

5 KB

Status: checked
Completed: 1 times
Size: 3.76 GB
terms.php

01-Oct-2020 09:28

[Quote] 

Display posts:    

Current time is: 29-Oct 05:27

All times are UTC ± 0


You cannot post new topics in this forum
You cannot reply to topics in this forum
You cannot edit your posts in this forum
You cannot delete your posts in this forum
You cannot vote in polls in this forum
You cannot attach files in this forum
You can download files in this forum
User agreement