Rei Shiina - Sexy semen mania 3 Rei Shiina [CZM-03] (Milky-Cat) [cen] [2008, Bukkake/ Gokkun, WEB-DL]

DL-List and Torrent activity [update peer]
Size:  1.36 GB   |    Registered:  29 days   |    Completed:  1 time
Seeders:  1  [  0 KB/s  ]   Leechers:  1  [  0 KB/s  ]   Show peers in full details
 
   
 
 

erzsebet ®

Longevity:
9 months 5 days
Posts:
861

Sexy semen mania 3 Rei Shiina


Страна: Япония / Japan
Дата релиза: 2008
Студия: Milky-Cat
Студийный код: CZM-03
Продолжительность: 01:59:30
Жанр: Bukkake/ Gokkun
Цензура: отсутствует / Uncensored есть / Censored
Язык: японский / Japanese
Series:
The sexy semen mania
В ролях:
Rei Shiina
Описание:
The last sperm lady in milky-cat. Now the series was finished in this title. this is one of superfetish title of lady Rei Shiina. shiruou shut 3 title of her. this released as the first. dramatic CZM series was finished in this title. It's forcused cum swallow and lady tastes sperm. rubbing sperm in sevral sequences. this type of hentai girl's porn was really popler in Japan 2002-2005 but sperm lover actress was not so many. So titles are not so many too. very rare. 72guys 80cum parform.
Quality: WEB-DL
Format: WMV
Video: Windows Media Video 9 640x480 25fps 1500kbps
Audio: WMA 2 48000Hz stereo 128kbps

MediaInfo

eneral
Complete name : /media/erzsebet/WD Bad 3TB/CZM-03 Sexy semen mania 3 Rei Shiina [erzsebet.org].wmv
Format : Windows Media
File size : 1.36 GiB
Duration : 1 h 59 min
Overall bit rate mode : Constant
Overall bit rate : 1 630 kb/s
Maximum Overall bit rate : 1 644 kb/s
Movie name : Sexy semen mania 3 Rei Shiina
Encoded date : UTC 2008-01-23 08:41:21.109
Video
ID : 1
Format : VC-1
Format profile : [email protected]
Codec ID : WMV3
Codec ID/Info : Windows Media Video 9
Codec ID/Hint : WMV3
Description of the codec : Windows Media Video 9 - Professional
Duration : 1 h 59 min
Bit rate mode : Constant
Bit rate : 1 500 kb/s
Width : 640 pixels
Height : 480 pixels
Display aspect ratio : 4:3
Frame rate : 29.970 (29970/1000) FPS
Nominal frame rate : 25.000 FPS
Color space : YUV
Chroma subsampling : 4:2:0
Bit depth : 8 bits
Scan type : Progressive
Compression mode : Lossy
Bits/(Pixel*Frame) : 0.163
Stream size : 1.25 GiB (92%)
Language : English (United States)
Audio
ID : 2
Format : WMA
Format version : Version 2
Codec ID : 161
Codec ID/Info : Windows Media Audio
Description of the codec : Windows Media Audio 9 - 128 kbps, 48 kHz, stereo (A/V) 1-pass CBR
Duration : 1 h 59 min
Bit rate mode : Constant
Bit rate : 128 kb/s
Channel(s) : 2 channels
Sampling rate : 48.0 kHz
Bit depth : 16 bits
Stream size : 109 MiB (8%)
Language : English (United States)

Screenshots

[leporno.info].t61048.torrent 
Torrent: Registered [ 2020-09-28 17:55 ] · 3D5591BE7EA2E976109636693DE3E933EED71907

Download .torrent

Download

2 KB

Status: checked
Completed: 1 times
Size: 1.36 GB
terms.php

28-Sep-2020 17:55

[Quote] 

Display posts:    

Current time is: 28-Oct 09:28

All times are UTC ± 0


You cannot post new topics in this forum
You cannot reply to topics in this forum
You cannot edit your posts in this forum
You cannot delete your posts in this forum
You cannot vote in polls in this forum
You cannot attach files in this forum
You can download files in this forum
User agreement