Black Widow / Черная Вдова (Michael Raven / Wicked) [2007, Feature, Straight, 720p, HD-DVD]

DL-List and Torrent activity [update peer]
Size:  13.87 GB   |    Registered:  22 days   |    Completed:  0 times
Seeders:  1  [  0 KB/s  ]   Leechers:  1  [  0 KB/s  ]   Show peers in full details
 
   
 
 

erzsebet ®

Longevity:
8 months 8 days
Posts:
801

Black Widow / Черная Вдова

Год производства: 2007 Страна: USA Жанр: Feature, Straight
Продолжительность: 01h 40min Режиссер: Michael Raven Студия: Wicked
В ролях:
Stormy Daniels • Barrett Blade • Carmel Hart • Cheyne Collins • Dick Nasty • Kayden Faye • Kayla Carrera • Marco Banderas • Myles Camack • Randy Spears.
Описание:
While most young girls dream of white picket fences and getting happily married when they grow up, Peyton (Stormy Daniels) always had other plans. At the age of 20, she meets Charles (Randy Spears), an older man of wealth and status. After seducing him into marrying her, she deviously begins putting her plan into action. As the picture perfect wife, she gives him everything a man could ask for: allowing him to have sex with other women and performing for him with other men. But as their three-year anniversary nears, it’s time for her dreams to come true, to become a black widow. Peyton begins to slowly poison Charles, but he has a plan of his own…will the predator become the prey?
Качество видео: HD-DVD
Видео: VC-1, 1280 x 720p, 11.5 Mbps, 59.97 fps
Аудио: [Eng] AC3, 384Kbps, 48.0 kHz, 6 channels • [Eng Commentary] AC3, 192Kbps, 48.0 kHz, 2 channels • [Spa] AC3, 192Kbps, 48.0 kHz, 2 channels

MediaInfo

General
Complete name                    : Black_Widow_HDDVD\HVDVD_TS\mainmovie.EVO
Format                           : MPEG-PS
File size                        : 8.77 GiB
Duration                         : 1h 40mn
Overall bit rate                 : 12.6 Mbps
Video
ID                               : 85 (0x55)
Format                           : VC-1
Format profile                   : [email protected]
Duration                         : 1h 40mn
Bit rate                         : 11.5 Mbps
Width                            : 1 280 pixels
Height                           : 720 pixels
Display aspect ratio             : 16:9
Frame rate                       : 59.940 fps
Chroma subsampling               : 4:2:0
Bit depth                        : 8 bits
Scan type                        : Progressive
Bits/(Pixel*Frame)               : 0.209
Stream size                      : 8.06 GiB (92%)
Audio #1
ID                               : 192 (0xC0)
Format                           : AC-3
Format/Info                      : Audio Coding 3
Mode extension                   : CM (complete main)
Duration                         : 1h 40mn
Bit rate mode                    : Constant
Bit rate                         : 384 Kbps
Channel(s)                       : 6 channels
Channel positions                : Front: L C R, Side: L R, LFE
Sampling rate                    : 48.0 KHz
Bit depth                        : 16 bits
Stream size                      : 275 MiB (3%)
Audio #2
ID                               : 193 (0xC1)
Format                           : AC-3
Format/Info                      : Audio Coding 3
Mode extension                   : CM (complete main)
Duration                         : 1h 40mn
Bit rate mode                    : Constant
Bit rate                         : 192 Kbps
Channel(s)                       : 2 channels
Channel positions                : Front: L R
Sampling rate                    : 48.0 KHz
Bit depth                        : 16 bits
Stream size                      : 137 MiB (2%)
Audio #3
ID                               : 194 (0xC2)
Format                           : AC-3
Format/Info                      : Audio Coding 3
Mode extension                   : CM (complete main)
Duration                         : 1h 40mn
Bit rate mode                    : Constant
Bit rate                         : 192 Kbps
Channel(s)                       : 2 channels
Channel positions                : Front: L R
Sampling rate                    : 48.0 KHz
Bit depth                        : 16 bits
Stream size                      : 137 MiB (2%)

Скринлист

[leporno.info].t59067.torrent 
Torrent: Registered [ 2020-09-09 00:22 ] · A5283D72D50823A2D9C0BDBD3C5F0E566CC44D93

Download .torrent

Download

38 KB

Status: checked
Completed: 0 times
Size: 13.87 GB
terms.php

09-Sep-2020 00:22

[Quote] 

Display posts:    

Current time is: 01-Oct 05:29

All times are UTC ± 0


You cannot post new topics in this forum
You cannot reply to topics in this forum
You cannot edit your posts in this forum
You cannot delete your posts in this forum
You cannot vote in polls in this forum
You cannot attach files in this forum
You can download files in this forum
User agreement