Belladonna: Fetish Fanatic 4 (Belladonna / Evil Angel) [2006 г., Lesbian, Staight, Trans, Anal, Toys, DAP, Deepthroat, Hardcore, +BTS, DVDRemux] Brianna Love, Claire Adams, Danielle Foxxx, Katsuni, Sandra Romain, Sasha Grey, Vicki Rich

DL-List and Torrent activity [update peer]
Size:  21.4 GB   |    Registered:  1 month 8 days   |    Completed:  1 time
Seeders:  1  [  0 KB/s  ]   Leechers:  2  [  0 KB/s  ]   Show peers in full details
 
   
 
 

erzsebet ®

Longevity:
7 months 27 days
Posts:
751

Belladonna: Fetish Fanatic 4 Год релиза: 2006 г.
Страна: USA
Жанр: Lesbian, Staight, Anal, Toys, DAP, Deepthroat, Hardcore, +BTS
Продолжительность: 08:03:13
Язык 1: Английский (с комментариями)
Язык 2: Английский (без комментариев)
Режиссер: Belladonna
Студия: Belladonna Entertainment / Evil Angel
В ролях:
Belladonna, Brianna Love, Claire Adams, Danielle Foxxx, Katsuni, Sandra Romain, Sasha Grey, Vicki Richter
Описание:
Belladonna brings out the rough side of her girls (and two horny she-males) in this special super-extended triple disc, with Bella's audio commentary throughout the movie, plus 3 hours (! ) of backstage material.
Качество: DVDRemux
Контейнер: MKV
Видео: MPEG2 Video 720x480 (4:3) 29.97fps 5954 Kbps 0.575 bit/pixel
Аудио: Dolby AC3 48000Hz stereo 192kbps

Тех данные

General
Unique ID : 308262245390847702564358879955365059728 (0xE7E9261F1C9D2276CAB9A77CA29ADC90)
Complete name : V:\Belladonna Fetish Fanatic 4 [erzsebet.org] DVDRemux.mkv
Format : Matroska
Format version : Version 4
File size : 21.4 GiB
Duration : 8 h 3 min
Overall bit rate mode : Variable
Overall bit rate : 6 341 kb/s
Movie name : Belladonna: Fetish Fanatic 4 [erzsebet.org]
Encoded date : UTC 2019-06-08 04:04:51
Writing application : mkvmerge v34.0.0 ('Sight and Seen') 64-bit
Writing library : libebml v1.3.7 + libmatroska v1.5.0
Video
ID : 1
Format : MPEG Video
Format version : Version 2
Format profile : [email protected]
Format settings : BVOP
Format settings, BVOP : Yes
Format settings, Matrix : Default
Format settings, GOP : M=3, N=13
Format settings, picture struc : Field
Codec ID : V_MPEG2
Codec ID/Info : MPEG 1 or 2 Video
Duration : 8 h 3 min
Bit rate mode : Variable
Bit rate : 5 954 kb/s
Maximum bit rate : 9 800 kb/s
Width : 720 pixels
Height : 480 pixels
Display aspect ratio : 4:3
Frame rate mode : Constant
Frame rate : 29.970 (29970/1000) FPS
Original frame rate : 29.970 (30000/1001) FPS
Standard : NTSC
Color space : YUV
Chroma subsampling : 4:2:0
Bit depth : 8 bits
Scan type : Interlaced
Scan order : Top Field First
Compression mode : Lossy
Bits/(Pixel*Frame) : 0.575
Time code of first frame : 00:01:34:21
Time code source : Group of pictures header
GOP, Open/Closed : Open
Stream size : 20.1 GiB (94%)
Language : English
Default : No
Forced : No
Color primaries : BT.601 NTSC
Transfer characteristics : BT.601
Matrix coefficients : BT.601
Audio #1
ID : 2
Format : AC-3
Format/Info : Audio Coding 3
Commercial name : Dolby Digital
Codec ID : A_AC3
Duration : 8 h 3 min
Bit rate mode : Constant
Bit rate : 192 kb/s
Channel(s) : 2 channels
Channel layout : L R
Sampling rate : 48.0 kHz
Frame rate : 31.250 FPS (1536 SPF)
Bit depth : 16 bits
Compression mode : Lossy
Stream size : 664 MiB (3%)
Title : Stereo
Language : English
Service kind : Complete Main
Default : Yes
Forced : No
Audio #2
ID : 3
Format : AC-3
Format/Info : Audio Coding 3
Commercial name : Dolby Digital
Codec ID : A_AC3
Duration : 8 h 3 min
Bit rate mode : Constant
Bit rate : 192 kb/s
Channel(s) : 2 channels
Channel layout : L R
Sampling rate : 48.0 kHz
Frame rate : 31.250 FPS (1536 SPF)
Bit depth : 16 bits
Compression mode : Lossy
Stream size : 664 MiB (3%)
Title : Stereo
Language : English
Service kind : Complete Main
Default : No
Forced : No
Menu
00:00:00.000 : en:Chapter 01
00:03:49.896 : en:Chapter 02
00:07:42.395 : en:Chapter 03
00:11:49.208 : en:Chapter 04
00:15:26.959 : en:Chapter 05
00:20:07.172 : en:Chapter 06
00:24:40.445 : en:Chapter 07
00:28:29.908 : en:Chapter 08
00:33:56.100 : en:Chapter 09
00:37:00.451 : en:Chapter 10
00:40:53.384 : en:Chapter 11
00:46:08.298 : en:Chapter 12
00:49:24.361 : en:Chapter 13
00:52:52.569 : en:Chapter 14
00:56:26.850 : en:Chapter 15
00:58:49.559 : en:Chapter 16
01:02:16.899 : en:Chapter 17
01:06:17.206 : en:Chapter 18
01:08:46.422 : en:Chapter 19
01:13:07.983 : en:Chapter 20
01:18:10.318 : en:Chapter 21
01:22:41.856 : en:Chapter 22
01:25:31.025 : en:Chapter 23
01:29:43.911 : en:Chapter 24
01:32:07.488 : en:Chapter 25
01:36:17.338 : en:Chapter 26
01:40:19.380 : en:Chapter 27
01:44:08.842 : en:Chapter 28
01:49:00.333 : en:Chapter 29
01:52:51.531 : en:Chapter 30
01:56:40.126 : en:Chapter 31
01:59:14.113 : en:Chapter 32
02:02:32.778 : en:Chapter 33
02:05:54.046 : en:Chapter 34
02:08:34.540 : en:Chapter 35
02:13:46.560 : en:Chapter 01
02:17:34.287 : en:Chapter 02
02:21:36.329 : en:Chapter 03
02:24:57.597 : en:Chapter 04
02:26:14.373 : en:Chapter 05
02:30:22.488 : en:Chapter 06
02:33:50.262 : en:Chapter 07
02:35:52.150 : en:Chapter 08
02:38:45.657 : en:Chapter 09
02:42:01.720 : en:Chapter 10
02:45:48.580 : en:Chapter 11
02:50:47.445 : en:Chapter 12
02:55:21.152 : en:Chapter 13
02:58:29.984 : en:Chapter 01
03:03:11.064 : en:Chapter 02
03:06:14.114 : en:Chapter 03
03:10:52.158 : en:Chapter 04
03:14:17.764 : en:Chapter 05
03:19:13.593 : en:Chapter 06
03:23:20.406 : en:Chapter 07
03:27:49.341 : en:Chapter 08
03:31:14.513 : en:Chapter 09
03:35:36.508 : en:Chapter 10
03:39:33.778 : en:Chapter 11
03:44:46.090 : en:Chapter 12
03:48:42.927 : en:Chapter 13
03:50:19.223 : en:Chapter 14
03:55:35.005 : en:Chapter 15
03:59:20.998 : en:Chapter 16
04:03:42.559 : en:Chapter 17
04:07:25.515 : en:Chapter 18
04:12:15.271 : en:Chapter 19
04:14:31.040 : en:Chapter 20
04:18:54.770 : en:Chapter 21
04:22:17.339 : en:Chapter 22
04:25:09.978 : en:Chapter 23
04:28:42.958 : en:Chapter 24
04:32:11.600 : en:Chapter 25
04:35:28.096 : en:Chapter 26
04:38:03.184 : en:Chapter 01
04:42:14.768 : en:Chapter 02
04:45:43.410 : en:Chapter 03
04:49:18.124 : en:Chapter 04
04:52:41.995 : en:Chapter 05
04:55:21.621 : en:Chapter 06
04:59:52.725 : en:Chapter 07
05:04:40.312 : en:Chapter 08
05:09:56.962 : en:Chapter 09
05:14:18.523 : en:Chapter 10
05:16:30.388 : en:Chapter 11
05:19:07.846 : en:Chapter 12
05:23:52.830 : en:Chapter 13
05:27:37.955 : en:Chapter 14
05:30:04.135 : en:Chapter 15
05:35:37.744 : en:Chapter 01
05:38:59.879 : en:Chapter 02
05:42:37.630 : en:Chapter 03
05:47:21.747 : en:Chapter 04
05:50:30.435 : en:Chapter 05
05:53:32.184 : en:Chapter 06
05:58:05.023 : en:Chapter 07
06:01:38.002 : en:Chapter 08
06:04:22.834 : en:Chapter 09
06:08:13.597 : en:Chapter 10
06:12:38.195 : en:Chapter 11
06:16:06.403 : en:Chapter 12
06:18:06.990 : en:Chapter 13
06:21:46.476 : en:Chapter 14
06:25:51.554 : en:Chapter 15
06:29:27.570 : en:Chapter 16
06:32:14.137 : en:Chapter 17
06:35:44.947 : en:Chapter 18
06:39:32.675 : en:Chapter 19
06:42:56.979 : en:Chapter 20
06:45:13.949 : en:Chapter 01
06:50:43.177 : en:Chapter 02
06:54:10.952 : en:Chapter 03
06:59:03.744 : en:Chapter 04
07:02:16.770 : en:Chapter 05
07:05:26.760 : en:Chapter 06
07:11:51.511 : en:Chapter 07
07:16:00.059 : en:Chapter 08
07:21:05.865 : en:Chapter 09
07:26:46.372 : en:Chapter 10
07:29:52.458 : en:Chapter 11
07:32:56.375 : en:Chapter 12
07:36:13.739 : en:Chapter 13
07:41:19.978 : en:Chapter 14
07:44:40.812 : en:Chapter 15
07:48:19.430 : en:Chapter 16
07:52:45.329 : en:Chapter 17
07:58:28.005 : en:Chapter 18
08:00:25.122 : en:Chapter 19

[leporno.info].t55653.torrent 
Torrent: Registered [ 2020-08-10 15:11 ] · 0516FCDA6A330A0F4031E73DB296C1D11A257CE4

Download .torrent

Download

27 KB

Status: checked
Completed: 1 times
Size: 21.4 GB
terms.php

10-Aug-2020 15:11

[Quote] 

Display posts:    

Current time is: 19-Sep 11:23

All times are UTC ± 0


You cannot post new topics in this forum
You cannot reply to topics in this forum
You cannot edit your posts in this forum
You cannot delete your posts in this forum
You cannot vote in polls in this forum
You cannot attach files in this forum
You can download files in this forum
User agreement