La Star Déchue / Fallen Star (Michel Ricaud) [1990, Classic, Feature, BDSM, VHSRip]

DL-List and Torrent activity [update peer]
Size:  615 MB   |    Registered:  1 month 19 days   |    Completed:  1 time
Seeders:  1  [  0 KB/s  ]   Leechers:  1  [  0 KB/s  ]   Show peers in full details
 
   
 
 

erzsebet ®

Longevity:
7 months 27 days
Posts:
751

Here is a forgotten classic from France. Carole Tredille's last film before the fall of this star. :( (Yeah, ironic title)
Well, it was too hardcore in her country at this time, so the infamous director Michel Ricaud did 2 months of jail for this. Watch those men torturing this poor hottie during 1 hour! They fill her holes with double dildos, they pour hot wax on her, they throw little nails on her body...
File size: 615 MiB
Resolution: 704 x 528 (VHSRip)
Duration: 01:13:07

MediaInfo

eneral
Complete name : /media/erzsebet/Toshiba 2TB/La star dechue (1990) [erzsebet.org].avi
Format : AVI
Format/Info : Audio Video Interleave
File size : 615 MiB
Duration : 1 h 13 min
Overall bit rate : 1 176 kb/s
Video
ID : 0
Format : MPEG-4 Visual
Format profile : Advanced [email protected]
Format settings : BVOP1
Format settings, BVOP : 1
Format settings, QPel : No
Format settings, GMC : No warppoints
Format settings, Matrix : Default (H.263)
Muxing mode : Packed bitstream
Codec ID : XVID
Codec ID/Hint : XviD
Duration : 1 h 13 min
Bit rate : 1 040 kb/s
Width : 704 pixels
Height : 528 pixels
Display aspect ratio : 4:3
Frame rate : 25.000 FPS
Color space : YUV
Chroma subsampling : 4:2:0
Bit depth : 8 bits
Scan type : Progressive
Compression mode : Lossy
Bits/(Pixel*Frame) : 0.112
Stream size : 544 MiB (88%)
Writing library : XviD 1.0.2 (UTC 2004-08-29)
Audio
ID : 1
Format : MPEG Audio
Format version : Version 1
Format profile : Layer 3
Codec ID : 55
Codec ID/Hint : MP3
Duration : 1 h 13 min
Source duration : 1 h 13 min
Bit rate mode : Constant
Bit rate : 128 kb/s
Channel(s) : 2 channels
Sampling rate : 44.1 kHz
Compression mode : Lossy
Delay relative to video : 26 ms
Stream size : 66.9 MiB (11%)
Alignment : Split accross interleaves
Interleave, duration : 52 ms (1.31 video frame)
Writing library : LAME3.93

[leporno.info].t54605.torrent 
Torrent: Registered [ 2020-07-31 00:11 ] · 00F83A87EC75218EDF8F4022C48C67E5DAB61969

Download .torrent

Download

24 KB

Status: checked
Completed: 1 times
Size: 615 MB
terms.php

31-Jul-2020 00:11

[Quote] 

Display posts:    

Current time is: 19-Sep 12:32

All times are UTC ± 0


You cannot post new topics in this forum
You cannot reply to topics in this forum
You cannot edit your posts in this forum
You cannot delete your posts in this forum
You cannot vote in polls in this forum
You cannot attach files in this forum
You can download files in this forum
User agreement