Loading...


Assault That Ass 8 (Jake Malone / Red Light District) [2005, Anal, DP, DAP, ATM, Group, Threesome, Gonzo, DVD9] Naomi Russell, Jada Fire, Olivia O'Lovely, Sandra Romain, Barbara Summer, Flower Tucci

DL-List and Torrent activity [update peer]
Size:  6.8 GB   |    Registered:  8 days   |    Completed:  0 times
Seeders:  1  [  0 KB/s  ]   Leechers:  1  [  0 KB/s  ]   Show peers in full details
 
   
 
 

erzsebet ®

Longevity:
5 months 16 days
Posts:
599

Assault That Ass 8
Штурм анального отверстия 8
Год релиза: 2005
Страна: USA
Жанр: Anal, DP, DAP, ATM, Group, Threesome, Gonzo
Продолжительность: 03:00:00
Режиссер: Jake Malone
Студия: Red Light District
В ролях:
Scene 1. Flower Tucci, Manuel Ferrara
Scene 2. Barbara Summer, Manuel Ferrara
Scene 3. Jada Fire, John Strong, Tony T.
Scene 4. Olivia O'Lovely, Manuel Ferrara
Scene 5. Sandra Romain, Manuel Ferrara, Steve Holmes
Scene 6. Naomi Russell, Michael Stefano
Описание:
Any ordinary whores would end up in the hospital after being fucked so hard by such cannon-sized cocks in their assholes, BUTT these sluts revel in their talent and ability to have their butt-holes ravaged and stretched beyond all recognition!! These bitches are talented and are sure to excite, arouse, and entertain you with their amazing and hardcore penetrations!!!
Качество видео: DVD9
Формат видео: DVD9-Video

MediaInfo

General
Complete name : I:\VIDEO_TS\VTS_01_1.VOB
Format : MPEG-PS
File size : 1 024 MiB
Duration : 29 min 11 s
Overall bit rate mode : Variable
Overall bit rate : 4 902 kb/s
Video
ID : 224 (0xE0)
Format : MPEG Video
Format version : Version 2
Format profile : [email protected]
Format settings : CustomMatrix / BVOP
Format settings, BVOP : Yes
Format settings, Matrix : Custom
Format settings, GOP : Variable
Format settings, picture st : Frame
Duration : 29 min 11 s
Bit rate mode : Variable
Bit rate : 4 613 kb/s
Maximum bit rate : 9 800 kb/s
Width : 720 pixels
Height : 480 pixels
Display aspect ratio : 4:3
Frame rate : 29.970 (30000/1001) FPS
Standard : NTSC
Color space : YUV
Chroma subsampling : 4:2:0
Bit depth : 8 bits
Scan type : Interlaced
Scan order : Top Field First
Compression mode : Lossy
Bits/(Pixel*Frame) : 0.445
Time code of first frame : 01:01:13:25
Time code source : Group of pictures header
Stream size : 963 MiB (94%)
Audio
ID : 189 (0xBD)-128 (0x80)
Format : AC-3
Format/Info : Audio Coding 3
Commercial name : Dolby Digital
Muxing mode : DVD-Video
Duration : 29 min 11 s
Bit rate mode : Constant
Bit rate : 192 kb/s
Channel(s) : 2 channels
Channel layout : L R
Sampling rate : 48.0 kHz
Frame rate : 31.250 FPS (1536 SPF)
Compression mode : Lossy
Delay relative to video : -67 ms
Stream size : 40.1 MiB (4%)
Service kind : Complete Main
[leporno.info].t52300.torrent 
Torrent: Registered [ 2020-06-29 11:41 ] · C0B1FF1D2659F2B6BCCBFFB9FDD6CC7AC13024E4

Download .torrent

Download

34 KB

Status: checked
Completed: 0 times
Size: 6.8 GB
terms.php

29-Jun-2020 11:41

[Quote] 

pezgmfhd

Longevity:
20 hours
Posts:
1

directions for use of viagra http://viagrados.com/# - best male enhancement
cost of viagra per pill <a href=http://viagrados.com/#>best price on viagra</a> buy viagra las vegas

Yesterday 09:52 (after 7 days)

[Quote] 

Display posts:    

Current time is: 08-Jul 05:32

All times are UTC ± 0


You cannot post new topics in this forum
You cannot reply to topics in this forum
You cannot edit your posts in this forum
You cannot delete your posts in this forum
You cannot vote in polls in this forum
You cannot attach files in this forum
You can download files in this forum
User agreement