Loading...


Throat Gaggers 9 (Jake Malone / Red Light District) [2005, Blowjobs, Gonzo, Facial, Swallow, DVD9]

DL-List and Torrent activity [update peer]
Size:  7.65 GB   |    Registered:  22 days   |    Completed:  1 time
Seeders:  1  [  0 KB/s  ]   Leechers:  1  [  0 KB/s  ]   Show peers in full details
 
   
 
 

erzsebet ®

Longevity:
2 months 14 days
Posts:
543

Throat Gaggers 9

Название фильма: Throat Gaggers 9
Год релиза: 2005
Страна: USA
Жанр: Blowjobs, Gonzo, Facial, Swallow
Язык: English
Продолжительность: 02:52:42
Режиссер: Jake Malone
Студия / Дистрибьютер: Red Light District
Starring:
Scene 1. Hailey Young, 3 swallows
Scene 2. Riley Shy (Bambi), 3 swallows
Scene 3. Tiffany Rayne, facials
Scene 4. Gianna Michaels, facials
Scene 5. Courtney Simpson, 4 swallows
Scene 6. Carmen Sancha, 4 swallows
Scene 7. Alektra Blue, 4 swallows
Scene 8. Bailey, 4 swallows
Scene 9. Cindy Crawford, facials
Bonus DVD scene Alektra Blue, Jake Malone
Behind the scenes
Описание:
Like having your dick sucked? Like watching girls gag on big dicks? Wow - you're going to love this video! Lots of good old cock sucking fun! Throat Gaggers goes on high intensity for a true hard ride gagging series! No delicate blowjobs here. Skull fucking at its finest! You can't miss watching this movie - it has everything you could possibly want out of a blowjob!
Качество: DVD9
Формат: DVD-Video
Видео: MPEG2 Video 720x480 (4:3) 29.97fps 5019kbps
Аудио: Dolby AC3 48000Hz stereo 192kbps

MediaInfo

General
Format : MPEG-PS
File size : 6.41 GiB
Duration : 2 h 52 min
Overall bit rate mode : Variable
Overall bit rate : 5 317 kb/s
Video
ID : 224 (0xE0)
Format : MPEG Video
Format version : Version 2
Format profile : [email protected]
Format settings : CustomMatrix / BVOP
Format settings, BVOP : Yes
Format settings, Matrix : Custom
Format settings, GOP : Variable
Format settings, picture struc : Frame
Duration : 2 h 52 min
Bit rate mode : Variable
Bit rate : 5 019 kb/s
Maximum bit rate : 9 800 kb/s
Width : 720 pixels
Height : 480 pixels
Display aspect ratio : 4:3
Frame rate : 29.970 (30000/1001) FPS
Standard : NTSC
Color space : YUV
Chroma subsampling : 4:2:0
Bit depth : 8 bits
Scan type : Interlaced
Scan order : Top Field First
Compression mode : Lossy
Bits/(Pixel*Frame) : 0.485
Time code of first frame : 01:00:43:26
Time code source : Group of pictures header
Stream size : 6.05 GiB (94%)
Audio
ID : 189 (0xBD)-128 (0x80)
Format : AC-3
Format/Info : Audio Coding 3
Commercial name : Dolby Digital
Muxing mode : DVD-Video
Duration : 2 h 52 min
Bit rate mode : Constant
Bit rate : 192 kb/s
Channel(s) : 2 channels
Channel layout : L R
Sampling rate : 48.0 kHz
Frame rate : 31.250 FPS (1536 SPF)
Compression mode : Lossy
Delay relative to video : -67 ms
Stream size : 237 MiB (4%)
Service kind : Complete Main

Screenshots



[leporno.info].t39681.torrent 
Torrent: Registered [ 2020-03-14 23:14 ] · 484C06B48A312C2F752FB5FE284F0074D9B4853A

Download .torrent

Download

77 KB

Status: checked
Completed: 1 times
Size: 7.65 GB
terms.php

14-Mar-2020 23:14

[Quote] 

Display posts:    

Current time is: 06-Apr 04:10

All times are UTC ± 0


You cannot post new topics in this forum
You cannot reply to topics in this forum
You cannot edit your posts in this forum
You cannot delete your posts in this forum
You cannot vote in polls in this forum
You cannot attach files in this forum
You can download files in this forum
User agreement