Loading...


Watashi no akai harawata (hana) / Women's Flesh: My Red Guts / Женская плоть: Мои красные кишки (Tamakichi Anaru / Barokku) [1999, Japan, Horror, DVDRemux]

 

erzsebet ®

Longevity:
28 days
Posts:
413

Женская плоть: Мои красные кишки
Watashi no akai harawata (hana)
Women's Flesh: My Red Guts

Оригинальное название: Watashi no akai harawata (hana)
Страна: Япония / Japan
Студия: Barokku
Жанр: Horror
Год выпуска: 1999
Продолжительность: 00:41:48
Перевод: Отсутствует
Субтитры: Английские / English
Оригинальная аудиодорожка: Японский / Japanese
Режиссер: Тамакичи Анару / Tamakichi Anaru
В ролях: Не известно / Unknown
Описание:
A woman is abandoned by her husband, so she copes with her grief through violence. As she holds a toothbrush, she decides to use it in a violent, sexual way to release her tensions. As she inflicts horrific pain and mutilation upon herself, she hopes to relieve the flood of negative emotions. But the more she harms herself, the more she wants to cause even more damage, soon covered in blood and barely alive.
Перевод от Гугла:
Женщина оставлена своим мужем, поэтому она справляется со своим горем через насилие. Держа зубную щетку, она решает использовать ее насильственным, сексуальным способом, чтобы снять напряжение. Поскольку она причиняет ужасную боль и увечья себе, она надеется ослабить поток негативных эмоций. Но чем больше она причиняет себе вред, тем больше она хочет нанести еще больший урон, скоро залитая кровью и едва живая.
Тип релиза: DVDRemux
Контейнер: MKV
Видео: MPEG2 Video 720x480 (4:3) 29.97fps 5002kbps [V: mpeg2 main, yuv420p, 720x480, 5002 kb/s]
Аудио: Dolby AC3 48000Hz stereo 192kbps [A: ac3, 48000 Hz, stereo, 192 kb/s]
Формат субтитров: SubPicture

MediaInfo

General
Unique ID : 101855235752238590488813380975585502383 (0x4CA09AD7A1D5C308BD22E7C22E35A4AF)
Complete name : D:\Downloads\Womens_Flesh_My_Red_Guts_erzsebet.org_DVD.mkv
Format : Matroska
Format version : Version 4
File size : 1.52 GiB
Duration : 41 min 48 s
Overall bit rate mode : Variable
Overall bit rate : 5 197 kb/s
Encoded date : UTC 2019-10-25 11:46:34
Writing application : mkvmerge v36.0.0 ('Is That Jazz?') 64-bit
Writing library : libebml v1.3.9 + libmatroska v1.5.2
Video
ID : 1
Format : MPEG Video
Format version : Version 2
Format profile : [email protected]
Format settings : BVOP
Format settings, BVOP : Yes
Format settings, Matrix : Default
Format settings, GOP : M=3, N=12
Format settings, picture struc : Frame
Codec ID : V_MPEG2
Codec ID/Info : MPEG 1 or 2 Video
Duration : 41 min 48 s
Bit rate mode : Variable
Bit rate : 5 002 kb/s
Maximum bit rate : 7 000 kb/s
Width : 720 pixels
Height : 480 pixels
Display aspect ratio : 4:3
Frame rate mode : Constant
Frame rate : 29.970 (30000/1001) FPS
Standard : NTSC
Color space : YUV
Chroma subsampling : 4:2:0
Bit depth : 8 bits
Scan type : Interlaced
Scan order : Bottom Field First
Compression mode : Lossy
Bits/(Pixel*Frame) : 0.483
Time code of first frame : 00:00:00;00
Time code source : Group of pictures header
GOP, Open/Closed : Closed
Stream size : 1.46 GiB (96%)
Language : English
Default : No
Forced : No
Audio
ID : 2
Format : AC-3
Format/Info : Audio Coding 3
Commercial name : Dolby Digital
Codec ID : A_AC3
Duration : 41 min 48 s
Bit rate mode : Constant
Bit rate : 192 kb/s
Channel(s) : 2 channels
Channel layout : L R
Sampling rate : 48.0 kHz
Frame rate : 31.250 FPS (1536 SPF)
Compression mode : Lossy
Stream size : 57.4 MiB (4%)
Title : Stereo
Language : English
Service kind : Complete Main
Default : Yes
Forced : No
Text
ID : 3
Format : VobSub
Muxing mode : zlib
Codec ID : S_VOBSUB
Codec ID/Info : Picture based subtitle format used on DVDs
Duration : 40 min 20 s
Bit rate : 109 b/s
Count of elements : 15
Stream size : 32.2 KiB (0%)
Language : English
Default : Yes
Forced : No
Menu
00:00:00.066 : en:Chapter 01
00:03:08.655 : en:Chapter 02
00:17:15.501 : en:Chapter 03
00:21:15.340 : en:Chapter 04
00:26:29.254 : en:Chapter 05
00:39:28.032 : en:Chapter 06

Скриншоты

03-Feb-2020 09:35

[Quote] 

Display posts:    

Current time is: 19-Feb 19:35

All times are UTC ± 0


You cannot post new topics in this forum
You cannot reply to topics in this forum
You cannot edit your posts in this forum
You cannot delete your posts in this forum
You cannot vote in polls in this forum
You cannot attach files in this forum
You cannot download files in this forum
User agreement