Boxer 2 / Rocco - The Italian Stallion 2 / Боксёр 2 (Joe D'Amato / Butterfly Pictures) [1997, Feature, DVD5] Lana Sands, Lexi Leigh, Missy, Roxanne Hall, Tatiana

DL-List and Torrent activity [update peer]
Size:  3.69 GB   |    Registered:  15 days   |    Completed:  1 time
Seeders:  1  [  0 KB/s  ]   Leechers:  1  [  0 KB/s  ]   Show peers in full details
 
   
 
 

erzsebet ®

Longevity:
9 months 6 days
Posts:
865

Boxer 2
Rocco - The Italian Stallion 2
Боксёр 2
- Выпущено: Butterfly Pictures / Italia / 1997
Жанр: Feature
Продолжительность: 01:38:17
Язык: English
Режиссер: Joe D'Amato
Студия: Butterfly Pictures
В ролях:
Scene 1. Lexi Leigh, Rocco Siffredi
Scene 2. Lexi Leigh, Tatiana, Rocco Siffredi
Scene 3. Lana Sands, Lexi Leigh, Missy, Rocco Siffredi
Scene 4. Lexi Leigh, Roxanne Hall, Sean Michaels

Описание: The boxer (Rocco Sifredi) is in training for the big rematch. He needs to concentrate on the task before him, but it's hard to focus on the big fight with so many...distractions. It's difficult enough as it is to train for a sporting event, but it's even harder when beautiful women want to get a piece of the action. When Black Cobra's trainer discovers Rocco's weakness he doesn't make it any easier. Just when it seems our hero is done for, he finds some inspiration in an unsuspected place that will give him the courage to be the champ!
Качество видео: DVD5 (ISO - No Original)
Видео: MPEG2 Video 720x480 (4:3) 29.970fps 4713kbps
Аудио: Dolby AC3 48000Hz stereo 192kbps

MediaInfo

General
Complete name : /media/erzsebet/disk/VIDEO_TS/VIDEO_TS.BUP
Format : DVD Video
Format profile : Menu
File size : 14.0 KiB
Overall bit rate mode : Variable
FileExtension_Invalid : ifo
Video
ID : 224 (0xE0)
Format : MPEG Video
Format version : Version 2
Bit rate mode : Variable
Width : 720 pixels
Height : 480 pixels
Display aspect ratio : 4:3
Frame rate : 29.970 (29970/1000) FPS
Standard : NTSC
Compression mode : Lossy
Text
Format : RLE
Format/Info : Run-length encoding
Bit depth : 2 bits
General
Complete name : /media/erzsebet/disk/VIDEO_TS/VIDEO_TS.IFO
Format : DVD Video
Format profile : Menu
File size : 14.0 KiB
Overall bit rate mode : Variable
Video
ID : 224 (0xE0)
Format : MPEG Video
Format version : Version 2
Bit rate mode : Variable
Width : 720 pixels
Height : 480 pixels
Display aspect ratio : 4:3
Frame rate : 29.970 (29970/1000) FPS
Standard : NTSC
Compression mode : Lossy
Text
Format : RLE
Format/Info : Run-length encoding
Bit depth : 2 bits
General
Complete name : /media/erzsebet/disk/VIDEO_TS/VIDEO_TS.VOB
Format : MPEG-PS
File size : 4.66 MiB
Duration : 19 s 419 ms
Overall bit rate mode : Variable
Overall bit rate : 2 012 kb/s
Video
ID : 224 (0xE0)
Format : MPEG Video
Format version : Version 2
Format profile : [email protected]
Format settings : CustomMatrix / BVOP
Format settings, BVOP : Yes
Format settings, Matrix : Custom
Format settings, GOP : M=2, N=16
Format settings, picture structure : Frame
Duration : 19 s 419 ms
Bit rate mode : Variable
Bit rate : 1 972 kb/s
Maximum bit rate : 5 000 kb/s
Width : 720 pixels
Height : 480 pixels
Display aspect ratio : 4:3
Frame rate : 29.970 (30000/1001) FPS
Standard : NTSC
Color space : YUV
Chroma subsampling : 4:2:0
Bit depth : 8 bits
Scan type : Interlaced
Scan order : Top Field First
Compression mode : Lossy
Bits/(Pixel*Frame) : 0.190
Time code of first frame : 01:00:00:00
Time code source : Group of pictures header
GOP, Open/Closed : Open
GOP, Open/Closed of first frame : Closed
Stream size : 4.57 MiB (98%)
Menu
General
Complete name : /media/erzsebet/disk/VIDEO_TS/VTS_01_0.BUP
Format : DVD Video
Format profile : Program
File size : 78.0 KiB
Duration : 1 h 38 min
Overall bit rate mode : Variable
Overall bit rate : 108 b/s
FileExtension_Invalid : ifo
Video
ID : 224 (0xE0)
Format : MPEG Video
Format version : Version 2
Duration : 1 h 38 min
Bit rate mode : Variable
Width : 720 pixels
Height : 480 pixels
Display aspect ratio : 4:3
Frame rate : 29.970 (29970/1000) FPS
Standard : NTSC
Compression mode : Lossy
Audio
ID : 128 (0x80)
Format : AC-3
Format/Info : Audio Coding 3
Duration : 1 h 38 min
Channel(s) : 2 channels
Sampling rate : 48.0 kHz
Compression mode : Lossy
Menu #1
Duration : 1 h 38 min
00:00:00.000 : Chapter 1
00:01:18.933 : Chapter 2
00:12:27.199 : Chapter 3
00:37:26.932 : Chapter 4
01:08:37.332 : Chapter 5
List (Audio) : 0
Menu #2
Duration : 1 min 10 s
00:00:00.000 : Chapter 1
List (Audio) : 0
General
Complete name : /media/erzsebet/disk/VIDEO_TS/VTS_01_0.IFO
Format : DVD Video
Format profile : Program
File size : 78.0 KiB
Duration : 1 h 38 min
Overall bit rate mode : Variable
Overall bit rate : 108 b/s
Video
ID : 224 (0xE0)
Format : MPEG Video
Format version : Version 2
Duration : 1 h 38 min
Bit rate mode : Variable
Width : 720 pixels
Height : 480 pixels
Display aspect ratio : 4:3
Frame rate : 29.970 (29970/1000) FPS
Standard : NTSC
Compression mode : Lossy
Audio
ID : 128 (0x80)
Format : AC-3
Format/Info : Audio Coding 3
Duration : 1 h 38 min
Channel(s) : 2 channels
Sampling rate : 48.0 kHz
Compression mode : Lossy
Menu #1
Duration : 1 h 38 min
00:00:00.000 : Chapter 1
00:01:18.933 : Chapter 2
00:12:27.199 : Chapter 3
00:37:26.932 : Chapter 4
01:08:37.332 : Chapter 5
List (Audio) : 0
Menu #2
Duration : 1 min 10 s
00:00:00.000 : Chapter 1
List (Audio) : 0
General
Complete name : /media/erzsebet/disk/VIDEO_TS/VTS_01_0.VOB
Format : MPEG-PS
File size : 95.8 MiB
Duration : 31 s 999 ms
Overall bit rate : 25.1 Mb/s
Video
ID : 224 (0xE0)
Format : MPEG Video
Format version : Version 2
Format profile : [email protected]
Format settings : BVOP
Format settings, BVOP : Yes
Format settings, Matrix : Default
Format settings, GOP : M=2, N=16
Format settings, picture structure : Frame
Duration : 31 s 999 ms
Bit rate mode : Constant
Bit rate : 24.4 Mb/s
Maximum bit rate : 6 000 kb/s
Width : 720 pixels
Height : 480 pixels
Display aspect ratio : 4:3
Frame rate : 29.970 (30000/1001) FPS
Standard : NTSC
Color space : YUV
Chroma subsampling : 4:2:0
Bit depth : 8 bits
Scan type : Interlaced
Scan order : Top Field First
Compression mode : Lossy
Bits/(Pixel*Frame) : 2.358
Time code of first frame : 01:00:00:00
Time code source : Group of pictures header
GOP, Open/Closed : Open
GOP, Open/Closed of first frame : Closed
Stream size : 93.2 MiB (97%)
Audio
ID : 189 (0xBD)-128 (0x80)
Format : AC-3
Format/Info : Audio Coding 3
Commercial name : Dolby Digital
Muxing mode : DVD-Video
Duration : 31 s 999 ms
Bit rate mode : Constant
Bit rate : 192 kb/s
Channel(s) : 2 channels
Channel layout : L R
Sampling rate : 48.0 kHz
Frame rate : 31.250 FPS (1536 SPF)
Bit depth : 16 bits
Compression mode : Lossy
Stream size : 750 KiB (1%)
Service kind : Complete Main
Text
ID : 189 (0xBD)-32 (0x20)
Format : RLE
Format/Info : Run-length encoding
Muxing mode : DVD-Video
Menu
General
Complete name : /media/erzsebet/disk/VIDEO_TS/VTS_01_1.VOB
Format : MPEG-PS
File size : 954 MiB
Duration : 30 min 5 s
Overall bit rate mode : Variable
Overall bit rate : 4 430 kb/s
Video
ID : 224 (0xE0)
Format : MPEG Video
Format version : Version 2
Format profile : [email protected]
Format settings : CustomMatrix / BVOP
Format settings, BVOP : Yes
Format settings, Matrix : Custom
Format settings, GOP : M=2, N=16
Format settings, picture structure : Frame
Duration : 30 min 5 s
Bit rate mode : Variable
Bit rate : 4 150 kb/s
Maximum bit rate : 5 000 kb/s
Width : 720 pixels
Height : 480 pixels
Display aspect ratio : 4:3
Frame rate : 29.970 (30000/1001) FPS
Standard : NTSC
Color space : YUV
Chroma subsampling : 4:2:0
Bit depth : 8 bits
Scan type : Interlaced
Scan order : Top Field First
Compression mode : Lossy
Bits/(Pixel*Frame) : 0.401
Time code of first frame : 01:00:00:00
Time code source : Group of pictures header
GOP, Open/Closed : Open
GOP, Open/Closed of first frame : Closed
Stream size : 893 MiB (94%)
Audio
ID : 189 (0xBD)-128 (0x80)
Format : AC-3
Format/Info : Audio Coding 3
Commercial name : Dolby Digital
Muxing mode : DVD-Video
Duration : 30 min 5 s
Bit rate mode : Constant
Bit rate : 192 kb/s
Channel(s) : 2 channels
Channel layout : L R
Sampling rate : 48.0 kHz
Frame rate : 31.250 FPS (1536 SPF)
Bit depth : 16 bits
Compression mode : Lossy
Stream size : 41.3 MiB (4%)
Service kind : Complete Main
Menu
General
Complete name : /media/erzsebet/disk/VIDEO_TS/VTS_01_2.VOB
Format : MPEG-PS
File size : 953 MiB
Duration : 28 min 34 s
Overall bit rate mode : Variable
Overall bit rate : 4 666 kb/s
Video
ID : 224 (0xE0)
Format : MPEG Video
Format version : Version 2
Format profile : [email protected]
Format settings : CustomMatrix / BVOP
Format settings, BVOP : Yes
Format settings, Matrix : Custom
Format settings, GOP : M=2, N=16
Format settings, picture structure : Frame
Duration : 28 min 34 s
Bit rate mode : Variable
Bit rate : 4 381 kb/s
Maximum bit rate : 5 000 kb/s
Width : 720 pixels
Height : 480 pixels
Display aspect ratio : 4:3
Frame rate : 29.970 (30000/1001) FPS
Standard : NTSC
Color space : YUV
Chroma subsampling : 4:2:0
Bit depth : 8 bits
Scan type : Interlaced
Scan order : Top Field First
Compression mode : Lossy
Bits/(Pixel*Frame) : 0.423
Time code of first frame : 01:30:03:22
Time code source : Group of pictures header
GOP, Open/Closed : Open
Stream size : 895 MiB (94%)
Audio
ID : 189 (0xBD)-128 (0x80)
Format : AC-3
Format/Info : Audio Coding 3
Commercial name : Dolby Digital
Muxing mode : DVD-Video
Duration : 28 min 34 s
Bit rate mode : Constant
Bit rate : 192 kb/s
Channel(s) : 2 channels
Channel layout : L R
Sampling rate : 48.0 kHz
Frame rate : 31.250 FPS (1536 SPF)
Bit depth : 16 bits
Compression mode : Lossy
Delay relative to video : -131 ms
Stream size : 39.2 MiB (4%)
Service kind : Complete Main
Menu
General
Complete name : /media/erzsebet/disk/VIDEO_TS/VTS_01_3.VOB
Format : MPEG-PS
File size : 953 MiB
Duration : 29 min 21 s
Overall bit rate mode : Variable
Overall bit rate : 4 541 kb/s
Video
ID : 224 (0xE0)
Format : MPEG Video
Format version : Version 2
Format profile : [email protected]
Format settings : CustomMatrix / BVOP
Format settings, BVOP : Yes
Format settings, Matrix : Custom
Format settings, GOP : M=2, N=16
Format settings, picture structure : Frame
Duration : 29 min 21 s
Bit rate mode : Variable
Bit rate : 4 259 kb/s
Maximum bit rate : 5 000 kb/s
Width : 720 pixels
Height : 480 pixels
Display aspect ratio : 4:3
Frame rate : 29.970 (30000/1001) FPS
Standard : NTSC
Color space : YUV
Chroma subsampling : 4:2:0
Bit depth : 8 bits
Scan type : Interlaced
Scan order : Top Field First
Compression mode : Lossy
Bits/(Pixel*Frame) : 0.411
Time code of first frame : 01:58:36:08
Time code source : Group of pictures header
GOP, Open/Closed : Open
Stream size : 894 MiB (94%)
Audio
ID : 189 (0xBD)-128 (0x80)
Format : AC-3
Format/Info : Audio Coding 3
Commercial name : Dolby Digital
Muxing mode : DVD-Video
Duration : 29 min 21 s
Bit rate mode : Constant
Bit rate : 192 kb/s
Channel(s) : 2 channels
Channel layout : L R
Sampling rate : 48.0 kHz
Frame rate : 31.250 FPS (1536 SPF)
Bit depth : 16 bits
Compression mode : Lossy
Delay relative to video : -105 ms
Stream size : 40.3 MiB (4%)
Service kind : Complete Main
Menu
General
Complete name : /media/erzsebet/disk/VIDEO_TS/VTS_01_4.VOB
Format : MPEG-PS
File size : 815 MiB
Overall bit rate mode : Variable
Video
ID : 224 (0xE0)
Format : MPEG Video
Format version : Version 2
Format profile : [email protected]
Format settings : CustomMatrix / BVOP
Format settings, BVOP : Yes
Format settings, Matrix : Custom
Format settings, GOP : M=2, N=16
Format settings, picture structure : Frame
Bit rate mode : Variable
Maximum bit rate : 5 000 kb/s
Width : 720 pixels
Height : 480 pixels
Display aspect ratio : 4:3
Frame rate : 29.970 (30000/1001) FPS
Standard : NTSC
Color space : YUV
Chroma subsampling : 4:2:0
Bit depth : 8 bits
Scan type : Interlaced
Scan order : Top Field First
Compression mode : Lossy
Time code of first frame : 02:27:55:22
Time code source : Group of pictures header
GOP, Open/Closed : Open
Audio
ID : 189 (0xBD)-128 (0x80)
Format : AC-3
Format/Info : Audio Coding 3
Commercial name : Dolby Digital
Muxing mode : DVD-Video
Bit rate mode : Constant
Bit rate : 192 kb/s
Channel(s) : 2 channels
Channel layout : L R
Sampling rate : 48.0 kHz
Frame rate : 31.250 FPS (1536 SPF)
Bit depth : 16 bits
Compression mode : Lossy
Delay relative to video : -211 ms
Service kind : Complete Main
Menu

Screenshots

[leporno.info].t62673.torrent 
Torrent: Registered [ 2020-10-13 23:54 ] · D4D57C2E3CCA08FD49A44F0F89324C9B2440DC2F

Download .torrent

Download

5 KB

Status: checked
Completed: 1 times
Size: 3.69 GB
terms.php

13-Oct-2020 23:54

[Quote] 

Display posts:    

Current time is: 29-Oct 04:29

All times are UTC ± 0


You cannot post new topics in this forum
You cannot reply to topics in this forum
You cannot edit your posts in this forum
You cannot delete your posts in this forum
You cannot vote in polls in this forum
You cannot attach files in this forum
You can download files in this forum
User agreement