[Chaturbate] lilas_world (09-10-2020) [WebCam, Amateur, Lesbian, Homemade, For Women, 1080p, WEBRip]

DL-List and Torrent activity [update peer]
Size:  30.32 GB   |    Registered:  1 year 7 months   |    Completed:  1 time
Seeders:  1  [  0 KB/s  ]   Leechers:  1  [  0 KB/s  ]   Show peers in full details
 
   
 
 

braZZZa ®

Longevity:
2 years 4 months
Posts:
1100

lilas_world
http://www.camhub.cc/models/lilas-world/

MediaInfo

eneral
Unique ID : 104933091742660294013315132574147998607 (0x4EF160DBD608CAD120DC6D278312F38F)
Complete name : /media/erzsebet/WD Bad 1,5TB/lilas_world (09-10-2020) [erzsebet.org].mkv
Format : Matroska
Format version : Version 4
File size : 30.3 GiB
Duration : 10 h 0 min
Overall bit rate : 7 231 kb/s
Encoded date : UTC 2020-10-09 13:15:00
Writing application : mkvmerge v45.0.0 ('Heaven in Pennies') 64-bit
Writing library : libebml v1.3.10 + libmatroska v1.5.2
Video
ID : 1
Format : AVC
Format/Info : Advanced Video Codec
Format profile : [email protected]
Format settings : CABAC / 1 Ref Frames
Format settings, CABAC : Yes
Format settings, ReFrames : 1 frame
Format settings, GOP : M=1, N=30
Codec ID : V_MPEG4/ISO/AVC
Duration : 10 h 0 min
Bit rate : 7 099 kb/s
Width : 1 920 pixels
Height : 1 080 pixels
Display aspect ratio : 16:9
Frame rate mode : Variable
Frame rate : 60.000 FPS
Color space : YUV
Chroma subsampling : 4:2:0
Bit depth : 8 bits
Scan type : Progressive
Bits/(Pixel*Frame) : 0.057
Stream size : 29.8 GiB (98%)
Default : Yes
Forced : No
Audio
ID : 2
Format : AAC LC
Format/Info : Advanced Audio Codec Low Complexity
Codec ID : A_AAC-2
Duration : 10 h 0 min
Bit rate : 126 kb/s
Channel(s) : 2 channels
Channel layout : L R
Sampling rate : 44.1 kHz
Frame rate : 43.066 FPS (1024 SPF)
Compression mode : Lossy
Delay relative to video : -12 ms
Stream size : 540 MiB (2%)
Default : Yes
Forced : No
[leporno.info].t62436.torrent 
Torrent: Registered [ 2020-10-11 06:00 ] · ABEB4CEC81E09E7E473957F1FB0EFDCE36E7C267

Download .torrent

Download

38 KB

Status: checked
Completed: 1 times
Size: 30.32 GB
terms.php

11-Oct-2020 06:00

[Quote] 

Display posts:    

Current time is: 23-May 20:55

All times are UTC ± 0


You cannot post new topics in this forum
You cannot reply to topics in this forum
You cannot edit your posts in this forum
You cannot delete your posts in this forum
You cannot vote in polls in this forum
You cannot attach files in this forum
You can download files in this forum
User agreement
MANYVIDS SITERIP | LEAKS MODELS | Leaked Models Onlyfans | OnlyRips.net | OnlyFans Models | OnlyFans Leaked | YESLeaks.net | PORNLeaked.net | NEWLeaks.net | SiteripX.com | RIPLeaks.com |