Black Widow / Черная Вдова (Michael Raven / Wicked) [2007, Feature, Straight, 720p, HDDVDRip]

DL-List and Torrent activity [update peer]
Size:  5.86 GB   |    Registered:  8 days   |    Completed:  0 times
Seeders:  1  [  0 KB/s  ]   Leechers:  1  [  0 KB/s  ]   Show peers in full details
 
   
 
 

erzsebet ®

Longevity:
7 months 27 days
Posts:
752

Black Widow / Черная Вдова

Год производства: 2007 Страна: USA Жанр: Feature, Straight
Продолжительность: 01h 40min Режиссер: Michael Raven Студия: Wicked
В ролях:
Stormy Daniels • Barrett Blade • Carmel Hart • Cheyne Collins • Dick Nasty • Kayden Faye • Kayla Carrera • Marco Banderas • Myles Camack • Randy Spears.
Описание:
While most young girls dream of white picket fences and getting happily married when they grow up, Peyton (Stormy Daniels) always had other plans. At the age of 20, she meets Charles (Randy Spears), an older man of wealth and status. After seducing him into marrying her, she deviously begins putting her plan into action. As the picture perfect wife, she gives him everything a man could ask for: allowing him to have sex with other women and performing for him with other men. But as their three-year anniversary nears, it’s time for her dreams to come true, to become a black widow. Peyton begins to slowly poison Charles, but he has a plan of his own…will the predator become the prey?
Качество: HDDVDRip
Формат: MKV
Видео: MPEG4 Video (H264) 1280x720 59.94fps 8000kbps
Аудио: Dolby AC3 48000Hz 6ch 384kbps

MediaInfo

General
Unique ID : 109142436054809625295779778690477035053 (0x521C118E77B3143BC23F31CC8B298E2D)
Complete name : D:\Black Widow [erzsebet.org].mkv
Format : Matroska
Format version : Version 4
File size : 5.86 GiB
Duration : 1 h 40 min
Overall bit rate : 8 384 kb/s
Movie name : Black Widow [erzsebet.org]
Encoded date : UTC 2020-09-09 00:04:58
Writing application : mkvmerge v48.0.0 ('Fortress Around Your Heart') 64-bit
Writing library : libebml v1.4.0 + libmatroska v1.6.0
Video
ID : 1
Format : AVC
Format/Info : Advanced Video Codec
Format profile : [email protected]
Format settings : CABAC / 8 Ref Frames
Format settings, CABAC : Yes
Format settings, Reference fra : 8 frames
Codec ID : V_MPEG4/ISO/AVC
Duration : 1 h 40 min
Bit rate : 8 000 kb/s
Width : 1 280 pixels
Height : 720 pixels
Display aspect ratio : 16:9
Frame rate mode : Constant
Frame rate : 59.940 (60000/1001) FPS
Color space : YUV
Chroma subsampling : 4:2:0
Bit depth : 8 bits
Scan type : Progressive
Bits/(Pixel*Frame) : 0.145
Stream size : 5.59 GiB (95%)
Writing library : x264 core 142 r2479 dd79a61
Encoding settings : cabac=1 / ref=8 / deblock=1:-1:-1 / analyse=0x3:0x133 / me=umh / subme=9 / psy=1 / psy_rd=1.00:0.15 / mixed_ref=1 / me_range=16 / chroma_me=1 / trellis=2 / 8x8dct=1 / cqm=0 / deadzone=21,11 / fast_pskip=1 / chroma_qp_offset=-3 / threads=6 / lookahead_threads=1 / sliced_threads=0 / nr=0 / decimate=1 / interlaced=0 / bluray_compat=0 / constrained_intra=0 / bframes=3 / b_pyramid=2 / b_adapt=2 / b_bias=0 / direct=3 / weightb=1 / open_gop=0 / weightp=2 / keyint=600 / keyint_min=60 / scenecut=40 / intra_refresh=0 / rc_lookahead=60 / rc=2pass / mbtree=1 / bitrate=8000 / ratetol=1.0 / qcomp=0.60 / qpmin=0 / qpmax=69 / qpstep=4 / cplxblur=20.0 / qblur=0.5 / vbv_maxrate=62500 / vbv_bufsize=78125 / nal_hrd=none / filler=0 / ip_ratio=1.40 / aq=1:1.00
Language : English
Default : Yes
Forced : No
Color range : Limited
Color primaries : BT.709
Transfer characteristics : BT.709
Matrix coefficients : BT.709
Audio
ID : 2
Format : AC-3
Format/Info : Audio Coding 3
Commercial name : Dolby Digital
Codec ID : A_AC3
Duration : 1 h 40 min
Bit rate mode : Constant
Bit rate : 384 kb/s
Channel(s) : 6 channels
Channel layout : L R C LFE Ls Rs
Sampling rate : 48.0 kHz
Frame rate : 31.250 FPS (1536 SPF)
Compression mode : Lossy
Stream size : 275 MiB (5%)
Title : Original
Language : English
Service kind : Complete Main
Default : Yes
Forced : No
Menu
00:00:00.000 : :Chapter 1
00:05:36.903 : :Chapter 2
00:09:33.523 : :Chapter 3
00:14:56.796 : :Chapter 4
00:17:58.911 : :Chapter 5
00:20:42.024 : :Chapter 6
00:21:56.098 : :Chapter 7
00:25:58.807 : :Chapter 8
00:29:16.288 : :Chapter 9
00:31:26.718 : :Chapter 10
00:32:55.757 : :Chapter 11
00:34:27.999 : :Chapter 12
00:35:01.516 : :Chapter 13
00:43:03.831 : :Chapter 14
00:46:16.974 : :Chapter 15
00:50:02.900 : :Chapter 16
00:52:17.551 : :Chapter 17
00:54:00.804 : :Chapter 18
01:02:53.603 : :Chapter 19
01:05:14.844 : :Chapter 20
01:07:55.271 : :Chapter 21
01:09:28.748 : :Chapter 22
01:11:54.260 : :Chapter 23
01:14:13.032 : :Chapter 24
01:20:28.657 : :Chapter 25
01:26:48.787 : :Chapter 26
01:27:25.590 : :Chapter 27
01:30:10.872 : :Chapter 28
01:32:12.260 : :Chapter 29
01:33:23.548 : :Chapter 30
01:35:12.740 : :Chapter 31
01:37:04.485 : :Chapter 32

Скринлист

[leporno.info].t59246.torrent 
Torrent: Registered [ 2020-09-10 15:41 ] · 98625B3D72625111A6CC534E9784785761B76AC8

Download .torrent

Download

8 KB

Status: checked
Completed: 0 times
Size: 5.86 GB
terms.php

10-Sep-2020 15:41

[Quote] 

Display posts:    

Current time is: 19-Sep 13:09

All times are UTC ± 0


You cannot post new topics in this forum
You cannot reply to topics in this forum
You cannot edit your posts in this forum
You cannot delete your posts in this forum
You cannot vote in polls in this forum
You cannot attach files in this forum
You can download files in this forum
User agreement