Sodom 4 / Содом 4 (Jim Powers / Sin City) [2007 г., Anal, Group, DP, 720p, HDDVDRip] Carmella Bing, Shyla Stylez, Victoria Sin, Trina Michaels, Tory Lane, Jennifer Dark

DL-List and Torrent activity [update peer]
Size:  6.65 GB   |    Registered:  20 days   |    Completed:  1 time
Seeders:  1  [  0 KB/s  ]   Leechers:  1  [  0 KB/s  ]   Show peers in full details
 
   
 
 

erzsebet ®

Longevity:
8 months 8 days
Posts:
801

Sodom 4 / Содом 4
Год релиза: 2007 г.
Страна: USA
Жанр: Anal, Group, DP
Продолжительность: 01:56:15
Язык: English
Режиссер: Jim Powers
Студия: Sin City
В ролях: Carmella Bing, Shyla Stylez, Victoria Sin, Trina Michaels, Tory Lane, Jennifer Dark
Описание:
Sin City presents another wild and wacky chapter in the chronicles of Sodom. Join Tory Lane and a cast of the top porn sluts in the business as they fuck and suck their way to oblivion. Anal sex, tit fucking, and cum flying are just three of the highlights you get in Sodom 4.
Scene 1.
Cast : Victoria Sin
Genres : Anal, One On One, Big Boobs, Facial Cumshot, Tattoo, Brunette
Scene 2.
Cast : Trina Michaels, Carmella Bing
Genres : Anal, Big Boobs, Facial Cumshot, Threesome, Lingerie, Piercing, Fishnet, Brunette, Blonde, Titty Fuck, Bubble Butt
Scene 3.
Cast : Tory Lane, Jennifer Dark
Genres : Anal, Group, Big Boobs, Facial Cumshot, Double Penetration, Lingerie, Cum Swapping, Fishnet, Brunette, Bubble Butt
Scene 4.
Cast : Shyla Stylez, Victoria Sin, Carmella Bing
Genres : Anal, Big Boobs, Threesome, Double Blowjob, Tattoo, Brunette, Blonde
Качество:HDDVDRip
Формат: MKV
Видео: MPEG4 Video (H264) 1280x720 59.94fps 8000kbps
Аудио: Dolby AC3 48000Hz stereo 192kbps

MediaInfo

Общее
Уникальный идентификатор : 39544602198457899861608819252052615698 (0x1DC0036AFD7635E17243DAD37337E212)
Полное имя : D:\Sodom 4 [erzsebet.org].mkv
Формат : Matroska
Версия формата : Version 4
Размер файла : 6,65 Гбайт
Продолжительность : 1 ч. 56 м.
Общий поток : 8 194 Кбит/сек
Название фильма : Sodom 4 [erzsebet.org]
Дата кодирования : UTC 2020-09-10 02:54:05
Программа кодирования : mkvmerge v48.0.0 ('Fortress Around Your Heart') 64-bit
Библиотека кодирования : libebml v1.4.0 + libmatroska v1.6.0
Видео
Идентификатор : 1
Формат : AVC
Формат/Информация : Advanced Video Codec
Профиль формата : [email protected]
Настройки формата : CABAC / 8 Ref Frames
Параметр CABAC формата : Да
Параметр RefFrames формата : 8 кадров
Идентификатор кодека : V_MPEG4/ISO/AVC
Продолжительность : 1 ч. 56 м.
Битрейт : 8 000 Кбит/сек
Ширина : 1 280 пикселей
Высота : 720 пикселей
Соотношение сторон : 16:9
Режим частоты кадров : Постоянный
Частота кадров : 59,940 (60000/1001) кадров/сек
Цветовое пространство : YUV
Субдискретизация насыщенности : 4:2:0
Битовая глубина : 8 бит
Тип развёртки : Прогрессивная
Бит/(Пиксели*Кадры) : 0.145
Размер потока : 6,49 Гбайт (98%)
Библиотека кодирования : x264 core 142 r2479 dd79a61
Настройки программы : cabac=1 / ref=8 / deblock=1:-1:-1 / analyse=0x3:0x133 / me=umh / subme=9 / psy=1 / psy_rd=1.00:0.15 / mixed_ref=1 / me_range=16 / chroma_me=1 / trellis=2 / 8x8dct=1 / cqm=0 / deadzone=21,11 / fast_pskip=1 / chroma_qp_offset=-3 / threads=6 / lookahead_threads=1 / sliced_threads=0 / nr=0 / decimate=1 / interlaced=0 / bluray_compat=0 / constrained_intra=0 / bframes=3 / b_pyramid=2 / b_adapt=2 / b_bias=0 / direct=3 / weightb=1 / open_gop=0 / weightp=2 / keyint=600 / keyint_min=60 / scenecut=40 / intra_refresh=0 / rc_lookahead=60 / rc=2pass / mbtree=1 / bitrate=8000 / ratetol=1.0 / qcomp=0.60 / qpmin=0 / qpmax=69 / qpstep=4 / cplxblur=20.0 / qblur=0.5 / vbv_maxrate=62500 / vbv_bufsize=78125 / nal_hrd=none / filler=0 / ip_ratio=1.40 / aq=1:1.00
Язык : English
Default : Да
Forced : Нет
Цветовой диапазон : Limited
Основные цвета : BT.709
Характеристики трансфера : BT.709
Коэффициенты матрицы : BT.709
Аудио
Идентификатор : 2
Формат : AC-3
Формат/Информация : Audio Coding 3
Коммерческое название : Dolby Digital
Идентификатор кодека : A_AC3
Продолжительность : 1 ч. 56 м.
Вид битрейта : Постоянный
Битрейт : 192 Кбит/сек
Каналы : 2 канала
Channel layout : L R
Частота : 48,0 КГц
Частота кадров : 31,250 кадров/сек (1536 SPF)
Метод сжатия : С потерями
Размер потока : 160 Мбайт (2%)
Заголовок : Original
Язык : English
Service kind : Complete Main
Default : Да
Forced : Нет
Меню
00:00:00.000 : :Chapter 1
00:03:18.865 : :Chapter 2
00:04:14.721 : :Chapter 3
00:07:38.307 : :Chapter 4
00:09:42.799 : :Chapter 5
00:12:02.188 : :Chapter 6
00:15:41.407 : :Chapter 7
00:17:34.903 : :Chapter 8
00:18:58.604 : :Chapter 9
00:20:36.452 : :Chapter 10
00:21:07.733 : :Chapter 11
00:35:19.584 : :Chapter 12
00:36:45.052 : :Chapter 13
00:38:07.952 : :Chapter 14
00:38:52.363 : :Chapter 15
00:42:43.027 : :Chapter 16
00:45:04.368 : :Chapter 17
00:48:05.099 : :Chapter 18
00:50:23.870 : :Chapter 19
00:51:39.563 : :Chapter 20
00:52:08.342 : :Chapter 21
00:55:52.566 : :Chapter 22
00:56:41.865 : :Chapter 23
00:58:19.162 : :Chapter 24
00:59:09.012 : :Chapter 25
01:00:01.815 : :Chapter 26
01:02:00.750 : :Chapter 27
01:03:24.467 : :Chapter 28
01:04:39.542 : :Chapter 29
01:06:55.127 : :Chapter 30
01:10:29.074 : :Chapter 31
01:12:22.805 : :Chapter 32
01:14:13.916 : :Chapter 33
01:15:44.573 : :Chapter 34
01:20:34.296 : :Chapter 35
01:22:03.135 : :Chapter 36
01:23:57.249 : :Chapter 37
01:26:02.190 : :Chapter 38
01:27:14.262 : :Chapter 39
01:28:07.131 : :Chapter 40
01:29:27.829 : :Chapter 41
01:30:39.901 : :Chapter 42
01:33:23.815 : :Chapter 43
01:35:06.550 : :Chapter 44
01:36:49.270 : :Chapter 45
01:38:06.730 : :Chapter 46
01:40:47.891 : :Chapter 47
01:43:01.208 : :Chapter 48
01:45:45.188 : :Chapter 49
01:47:58.689 : :Chapter 50
01:50:46.306 : :Chapter 51
01:51:26.529 : :Chapter 52
01:52:27.207 : :Chapter 53
01:53:04.995 : :Chapter 54
01:54:08.691 : :Chapter 55

Скринлист

[leporno.info].t59245.torrent 
Torrent: Registered [ 2020-09-10 15:40 ] · D8198DDBA029046A62E999D7FB2E29CA2A80964B

Download .torrent

Download

9 KB

Status: checked
Completed: 1 times
Size: 6.65 GB
terms.php

10-Sep-2020 15:40

[Quote] 

TommySuist

Longevity:
4 days
Posts:
1
Location:
Россия

Приветствую всех! класный у вас сайт!
Нашел топ базу кино: лучшие сериалы мира бесплатно онлайн http://kinoklan.net/
Тут: лучшее семейные фильмы онлайн Лучшие семейные фильмы онлайн список 2020
Здесь: http://kinoklan.net/16699-forsazh-9-izmenit-zakony-fiziki.html «Форсаж 9» изменит законы физики?
Здесь: http://kinoklan.net/5805-novyy-amsterdam-bessmertny...ezon-1-2008.html
Attachments (2 KB)

img

26-Sep-2020 15:25 (after 15 days)

[Quote] 

Display posts:    

Current time is: 01-Oct 05:33

All times are UTC ± 0


You cannot post new topics in this forum
You cannot reply to topics in this forum
You cannot edit your posts in this forum
You cannot delete your posts in this forum
You cannot vote in polls in this forum
You cannot attach files in this forum
You can download files in this forum
User agreement