[BDWC] Lexington Steele: MILF Magnet 6 (Lexington Steele / Mercenary Pictures) [2011, MILF, Gonzo, IR, Big Dicks, DVDRip] Michelle McLarren, Shay Fox, Karen Fisher, Friday

DL-List and Torrent activity [update peer]
Size:  2.26 GB   |    Registered:  2 months 2 days   |    Completed:  1 time
Seeders:  1  [  0 KB/s  ]   Leechers:  1  [  0 KB/s  ]   Show peers in full details
 
   
 
 

erzsebet ®

Longevity:
7 months 27 days
Posts:
751

Lexington Steele: MILF Magnet 6


Title: Lexington Steele: MILF Magnet 6
Release Date:
Country: USA
Genres: MILF, Gonzo, IR, Big Dicks
Language: English
Duration: 02:15:11
Director: Lexington Steele
Studio / Distributor: Mercenary Pictures
Starring:
Scene 1. Karen Fisher, Lexington Steele
Scene 2. Michelle McLaren, Lexington Steele
Scene 3. Friday, Lexington Steele
Scene 4. Shay Fox, Lexington Steele
Description:
Lexington Steele is about to show these sexy cougars how to ride a real cock! He doesn't fuck around so they better be ready to get the fuck of a lifetime and be panting and gasping for air after mind blowing orgasms!
Quality: DVDRip
Format: MKV
Video: AVC 720x406 (16:9) 59.94fps 2200kbps
Audio: Dolby AC3 48000Hz stereo 192kbps

MediaInfo

General
Unique ID : 211460828039780019211515857005944978020 (0x9F15DFC39EB3AFCB2D284C161B8B3A64)
Complete name : /media/erzsebet/Data 1 TB/MILF Magnet 6 [erzsebet.org] DVDRip.mkv
Format : Matroska
Format version : Version 4
File size : 2.26 GiB
Duration : 2 h 15 min
Overall bit rate : 2 397 kb/s
Movie name : MILF Magnet 6 [erzsebet.org]
Encoded date : UTC 2020-07-16 14:48:50
Writing application : HandBrake 1.2.2 2019062000
Writing library : Lavf58.20.100
ErrorDetectionType : Per level 1
Video
ID : 1
Format : AVC
Format/Info : Advanced Video Codec
Format profile : [email protected]
Format settings : CABAC / 8 Ref Frames
Format settings, CABAC : Yes
Format settings, ReFrames : 8 frames
Codec ID : V_MPEG4/ISO/AVC
Duration : 2 h 15 min
Bit rate : 2 200 kb/s
Width : 720 pixels
Height : 406 pixels
Display aspect ratio : 16:9
Frame rate mode : Constant
Frame rate : 59.940 (60000/1001) FPS
Color space : YUV
Chroma subsampling : 4:2:0
Bit depth : 8 bits
Scan type : Progressive
Bits/(Pixel*Frame) : 0.126
Stream size : 2.04 GiB (90%)
Writing library : x264 core 157
Encoding settings : cabac=1 / ref=8 / deblock=1:-1:-1 / analyse=0x3:0x133 / me=umh / subme=10 / psy=1 / psy_rd=1,00:0,15 / mixed_ref=1 / me_range=24 / chroma_me=1 / trellis=2 / 8x8dct=1 / cqm=0 / deadzone=21,11 / fast_pskip=1 / chroma_qp_offset=-3 / threads=3 / lookahead_threads=1 / sliced_threads=0 / nr=0 / decimate=1 / interlaced=0 / bluray_compat=0 / constrained_intra=0 / bframes=8 / b_pyramid=2 / b_adapt=2 / b_bias=0 / direct=3 / weightb=1 / open_gop=0 / weightp=2 / keyint=600 / keyint_min=60 / scenecut=40 / intra_refresh=0 / rc_lookahead=60 / rc=2pass / mbtree=1 / bitrate=2200 / ratetol=1,0 / qcomp=0,60 / qpmin=0 / qpmax=69 / qpstep=4 / cplxblur=20,0 / qblur=0,5 / vbv_maxrate=62500 / vbv_bufsize=78125 / nal_hrd=none / filler=0 / ip_ratio=1,40 / aq=1:1,00
Default : Yes
Forced : No
Color range : Limited
Color primaries : BT.601 NTSC
Transfer characteristics : BT.709
Matrix coefficients : BT.601
DURATION : 02:15:11,737000000
Audio
ID : 2
Format : AC-3
Format/Info : Audio Coding 3
Commercial name : Dolby Digital
Codec ID : A_AC3
Duration : 2 h 15 min
Bit rate mode : Constant
Bit rate : 192 kb/s
Channel(s) : 2 channels
Channel layout : L R
Sampling rate : 48.0 kHz
Frame rate : 31.250 FPS (1536 SPF)
Bit depth : 16 bits
Compression mode : Lossy
Delay relative to video : -67 ms
Stream size : 186 MiB (8%)
Title : Stereo
Service kind : Complete Main
Default : Yes
Forced : No
DURATION : 02:15:11,232000000
Menu
00:00:00.067 : :Chapter 1
00:01:54.615 : :Chapter 2
00:14:35.875 : :Chapter 3
00:19:04.644 : :Chapter 4
00:22:34.854 : :Chapter 5
00:30:34.833 : :Chapter 6
00:38:06.718 : :Chapter 7
00:38:58.570 : :Chapter 8
00:44:44.315 : :Chapter 9
00:48:19.530 : :Chapter 10
00:51:48.739 : :Chapter 11
00:59:25.195 : :Chapter 12
01:06:55.144 : :Chapter 13
01:08:52.295 : :Chapter 14
01:11:34.824 : :Chapter 15
01:16:07.096 : :Chapter 16
01:22:27.743 : :Chapter 17
01:31:08.630 : :Chapter 18
01:43:05.079 : :Chapter 19
01:44:16.751 : :Chapter 20
01:50:27.521 : :Chapter 21
01:51:49.102 : :Chapter 22
01:56:25.378 : :Chapter 23
02:01:59.212 : :Chapter 24
02:11:55.408 : :Chapter 25
02:13:26.999 : :Chapter 26
02:14:26.792 : :Chapter 27
02:15:00.793 : :Chapter 28

Screenshots

[leporno.info].t53951.torrent 
Torrent: Registered [ 2020-07-17 01:22 ] · 8ECAADF604E8CDB86B4EB40294C366A9FCE0DB80

Download .torrent

Download

3 KB

Status: checked
Completed: 1 times
Size: 2.26 GB
terms.php

17-Jul-2020 01:22

[Quote] 

Display posts:    

Current time is: 19-Sep 11:45

All times are UTC ± 0


You cannot post new topics in this forum
You cannot reply to topics in this forum
You cannot edit your posts in this forum
You cannot delete your posts in this forum
You cannot vote in polls in this forum
You cannot attach files in this forum
You can download files in this forum
User agreement